The.Resurrection.Of.Gavin.Stone.2016.BRRip.XviD.AC3-iFT[PRiME]

  • Category Movies
  • Type Divx/Xvid
  • Language English
  • Total size 1.8 GB
  • Uploaded By showstopper
  • Downloads 6
  • Last checked 30 minutes ago
  • Date uploaded 3 days ago
  • Seeders 4
  • Leechers 3

Infohash : 7EE000FEAD8BCCE9CC9D7691AB6B59C95E4CDB3C


The.Resurrection.Of.Gavin.Stone.2016.BRRip.XviD.AC3-iFT[PRiME]

ImDb: http://www.imdb.com/title/tt4902904



Complete name : The.Resurrection.Of.Gavin.Stone.2016.BRRip.XviD.AC3-iFT[PRiME].avi
Format : AVI
Format/Info : Audio Video Interleave
File size : 1.73 GiB
Duration : 1 h 31 min
Overall bit rate : 2 704 kb/s
Writing application : VirtualDubMod 1.5.10.2 (build 2540/release)
Writing library : VirtualDubMod build 2540/release

Video
ID : 0
Format : MPEG-4 Visual
Format profile : Advanced [email protected]
Format settings, BVOP : 2
Format settings, QPel : No
Format settings, GMC : No warppoints
Format settings, Matrix : Default (H.263)
Muxing mode : Packed bitstream
Codec ID : XVID
Codec ID/Hint : XviD
Duration : 1 h 31 min
Bit rate : 2 246 kb/s
Width : 720 pixels
Height : 384 pixels
Display aspect ratio : 1.85:1
Frame rate : 23.976 (23976/1000) FPS
Color space : YUV
Chroma subsampling : 4:2:0
Bit depth : 8 bits
Scan type : Progressive
Compression mode : Lossy
Bits/(Pixel*Frame) : 0.339
Stream size : 1.44 GiB (83%)
Writing library : XviD 73

Audio
ID : 1
Format : AC-3
Format/Info : Audio Coding 3
Mode extension : CM (complete main)
Format settings, Endianness : Big
Codec ID : 2000
Duration : 1 h 31 min
Bit rate mode : Constant
Bit rate : 448 kb/s
Channel(s) : 6 channels
Channel positions : Front: L C R, Side: L R, LFE
Sampling rate : 48.0 kHz
Frame rate : 31.250 FPS (1536 spf)
Compression mode : Lossy
Stream size : 293 MiB (17%)
Alignment : Split accross interleaves
Interleave, duration : 42 ms (1.00 video frame)
Interleave, preload duration : 500 ms




Click Image To View Full Size


Click To View Screenshot
Click To View Screenshot
Click To View Screenshot

Files:

The.Resurrection.Of.Gavin.Stone.2016.BRRip.XviD.AC3-iFT[PRiME]
  • Please Support!! Read More!!!.txt (0.3 KB)
  • Sample
    • Sample[PRiME].avi (22.4 MB)
  • The.Resurrection.Of.Gavin.Stone.2016.BRRip.XviD.AC3-iFT[PRiME].avi (1.7 GB)
  • Torrent Downloaded From fierceenergy.com.txt (0.1 KB)
  • Torrent Downloaded From ExtraTorrent.cc.txt (0.4 KB)

There are currently no comments. Feel free to leave one :)

Code:

  • udp://tracker.ilibr.org:6969/announce
  • udp://tracker.coppersurfer.tk:6969
  • udp://tracker.ilibr.org:80/announce
  • udp://tracker.coppersurfer.tk:6969/announce
  • udp://tracker.leechers-paradise.org:6969/announce
  • udp://tracker.opentrackr.org:1337/announce
  • udp://tracker.zer0day.to:1337/announce
  • udp://ipv4.tracker.harry.lu:80/announce
  • udp://p4p.arenabg.ch:1337/announce
  • udp://p4p.arenabg.com:1337/announce
  • udp://9.rarbg.com:2710/announce
  • udp://9.rarbg.to:2710/announce
  • udp://9.rarbg.me:2710/announce
  • udp://explodie.org:6969/announce
  • udp://eddie4.nl:6969/announce