Walking.Tall(2004).BluRay.720p.x264-HEFF.mp4

  • Category Movies
  • Type h.264/x264
  • Language English
  • Total size 1.6 GB
  • Uploaded By pheonix83
  • Downloads 58
  • Last checked 3 days ago
  • Date uploaded 4 days ago
  • Seeders 8
  • Leechers 9

Walking Tall

ActionAdventureDramaThriller

A former U.S. soldier returns to his hometown to find it overrun by crime and corruption, which prompts him to clean house.

Infohash : DDB1138942BFD98802E84BE9E37DAC33DD2666F0



IMDb: http://www.imdb.com/title/tt0351977/
Donate Us: bitcoin:17HBPWiAcvh9GFcZPg1ebvBXbnJDE3oxut

File Info



General
Complete name : Walking.Tall(2004).BluRay.720p.x264-HEFF.mp4
Format : MPEG-4
Format profile : Base Media
Codec ID : isom (isom/iso2/avc1/mp41)
File size : 1.57 GiB
Duration : 1 h 26 min
Overall bit rate : 2 601 kb/s

Video
ID : 1
Format : AVC
Format/Info : Advanced Video Codec
Format profile : [email protected]
Format settings, CABAC : Yes
Format settings, ReFrames : 4 frames
Codec ID : avc1
Codec ID/Info : Advanced Video Coding
Duration : 1 h 26 min
Bit rate : 2 466 kb/s
Nominal bit rate : 2 700 kb/s
Width : 1 280 pixels
Height : 536 pixels
Display aspect ratio : 2.40:1
Frame rate mode : Constant
Frame rate : 23.976 (23976/1000) FPS
Chroma subsampling : 4:2:0
Bit depth : 8 bits
Scan type : Progressive
Bits/(Pixel*Frame) : 0.150
Stream size : 1.49 GiB (95%)
Writing library : x264 core 148

Audio
ID : 2
Format : AAC
Format/Info : Advanced Audio Codec
Format profile : LC
Codec ID : 40
Duration : 1 h 26 min
Duration_LastFrame : -4 ms
Bit rate mode : Constant
Bit rate : 130 kb/s
Channel(s) : 2 channels
Channel positions : Front: L R
Sampling rate : 48.0 kHz
Frame rate : 46.875 FPS (1024 spf)
Compression mode : Lossy
Stream size : 80.0 MiB (5%)

Thumbnails



Files:

Walking.Tall(2004).BluRay.720p.x264-HEFF
  • hefftorrents.com.jpg (83.3 KB)
  • Walking.Tall(2004).BluRay.720p.x264-HEFF.mp4 (1.6 GB)
  • Walking.Tall(2004).BluRay.720p.x264-HEFF.srt (53.3 KB)

There are currently no comments. Feel free to leave one :)

Code:

  • udp://tracker.opentrackr.org:1337/announce
  • udp://9.rarbg.to:2710/announce
  • udp://9.rarbg.me:2710/announce
  • udp://tracker.ilibr.org:6969/announce
  • udp://tracker.ilibr.org:80/announce
  • udp://tracker.coppersurfer.tk:6969/announce
  • udp://tracker.coppersurfer.tk:6969
  • udp://p4p.arenabg.com:1337/announce
  • udp://p4p.arenabg.ch:1337/announce
  • udp://shadowshq.yi.org:6969/announce
  • udp://tracker.leechers-paradise.org:6969/announce
  • udp://explodie.org:6969/announce
  • udp://tracker.zer0day.to:1337/announce
  • udp://tracker.pirateparty.gr:6969/announce
  • udp://ipv4.tracker.harry.lu:80/announce