The.Great.Wall.2016.HDRip.720p.x264-HEFF.mp4

  • Category Movies
  • Type h.264/x264
  • Language English
  • Total size 2.0 GB
  • Uploaded By pheonix83
  • Downloads 1689
  • Last checked 17 hours ago
  • Date uploaded 6 days ago
  • Seeders 123
  • Leechers 37

The Great Wall

AdventureThrillerAction

The story of an elite force making a last stand for humanity on the world’s most iconic structure.

Infohash : F6CDE382C95A109DD930C11598E32BB9BAD80AB0



IMDb: http://www.imdb.com/title/tt2034800/
Donate Us: bitcoin:17HBPWiAcvh9GFcZPg1ebvBXbnJDE3oxut

File Info



General
Complete name : The.Great.Wall.2016.HDRip.720p.x264-HEFF.mp4
Format : MPEG-4
Format profile : Base Media
Codec ID : isom (isom/iso2/avc1/mp41)
File size : 2.03 GiB
Duration : 1 h 43 min
Overall bit rate : 2 826 kb/s

Video
ID : 1
Format : AVC
Format/Info : Advanced Video Codec
Format profile : [email protected]
Format settings, CABAC : Yes
Format settings, ReFrames : 4 frames
Codec ID : avc1
Codec ID/Info : Advanced Video Coding
Duration : 1 h 43 min
Bit rate : 2 700 kb/s
Width : 1 280 pixels
Height : 536 pixels
Display aspect ratio : 2.40:1
Frame rate mode : Constant
Frame rate : 23.976 (23976/1000) FPS
Chroma subsampling : 4:2:0
Bit depth : 8 bits
Scan type : Progressive
Bits/(Pixel*Frame) : 0.164
Stream size : 1.94 GiB (95%)
Writing library : x264 core 148

Audio
ID : 2
Format : AAC
Format/Info : Advanced Audio Codec
Format profile : LC
Codec ID : 40
Duration : 1 h 43 min
Bit rate mode : Constant
Bit rate : 129 kb/s
Channel(s) : 2 channels
Channel positions : Front: L R
Sampling rate : 48.0 kHz
Frame rate : 46.875 FPS (1024 spf)
Compression mode : Lossy
Stream size : 95.3 MiB (5%)

Thumbnails



Files:

The.Great.Wall.2016.HDRip.720p.x264-HEFF
  • hefftorrents.com.jpg (83.3 KB)
  • The.Great.Wall.2016.HDRip.720p.x264-HEFF.mp4 (2.0 GB)
  • The.Great.Wall.2016.HDRip.720p.x264-HEFF.srt (13.7 KB)

There are currently no comments. Feel free to leave one :)

Code:

  • udp://tracker.opentrackr.org:1337/announce
  • udp://9.rarbg.to:2710/announce
  • udp://9.rarbg.me:2710/announce
  • udp://tracker.ilibr.org:6969/announce
  • udp://tracker.ilibr.org:80/announce
  • udp://tracker.coppersurfer.tk:6969/announce
  • udp://tracker.coppersurfer.tk:6969
  • udp://p4p.arenabg.com:1337/announce
  • udp://p4p.arenabg.ch:1337/announce
  • udp://shadowshq.yi.org:6969/announce
  • udp://tracker.leechers-paradise.org:6969/announce
  • udp://explodie.org:6969/announce
  • udp://tracker.zer0day.to:1337/announce
  • udp://tracker.pirateparty.gr:6969/announce
  • udp://ipv4.tracker.harry.lu:80/announce